<?xml version="1.0" standalone="no"?>
<!DOCTYPE svg PUBLIC "-//W3C//DTD SVG 1.1//EN" "http://www.w3.org/Graphics/SVG/1.1/DTD/svg11.dtd">
<svg xmlns="http://www.w3.org/2000/svg">
<metadata>Copyright (C) 2024 by original authors @ fontello.com</metadata>
<defs>
<font id="zeroex-icons" horiz-adv-x="1000" >
<font-face font-family="zeroex-icons" font-weight="400" font-stretch="normal" units-per-em="1000" ascent="850" descent="-150" />
<missing-glyph horiz-adv-x="1000" />
<glyph glyph-name="building-light" unicode="&#xe800;" d="M375 641v-78c0-13-10-23-23-23h-79c-12 0-23 10-23 23v78c0 13 11 24 23 24h79c13 0 23-11 23-24z m227 24h-79c-12 0-23-11-23-24v-78c0-13 11-23 23-23h79c13 0 23 10 23 23v78c0 13-10 24-23 24z m-250-188h-79c-12 0-23-10-23-23v-79c0-13 11-23 23-23h79c13 0 23 10 23 23v79c0 13-10 23-23 23z m250 0h-79c-12 0-23-10-23-23v-79c0-13 11-23 23-23h79c13 0 23 10 23 23v79c0 13-10 23-23 23z m-250-187h-79c-12 0-23-11-23-24v-78c0-13 11-23 23-23h79c13 0 23 10 23 23v78c0 13-10 24-23 24z m250 0h-79c-12 0-23-11-23-24v-78c0-13 11-23 23-23h79c13 0 23 10 23 23v78c0 13-10 24-23 24z m273-401v-39h-875v39c0 13 11 23 23 23h40v891c0 26 21 47 46 47h657c26 0 47-21 47-47v-891h39c13 0 23-10 23-23z m-125 23v876h-625v-876h250v167c0 13 11 23 23 23h79c13 0 23-10 23-23v-167h250z" horiz-adv-x="875" />

<glyph glyph-name="atom-alt-light" unicode="&#xe801;" d="M770 350c108-165 139-321 64-395-28-29-68-43-115-43-42 0-89 11-142 32-45 18-92 44-139 75-48-31-95-57-140-75-52-21-100-32-141-32-48 0-88 14-116 43-75 74-44 230 64 395-108 165-139 321-64 395 53 53 144 56 257 11 45-18 92-44 140-75 47 31 94 57 139 75 114 45 205 42 257-11 75-74 44-230-64-395z m-388-292a1209 1209 0 0 0-127 110 1213 1213 0 0 0-111 127c-84-135-103-251-58-296 33-33 101-32 189 3 35 14 71 34 107 56z m-238 347a1190 1190 0 0 0 238 237c-36 22-72 42-107 56-45 18-85 27-118 27-31 0-56-8-71-24-45-44-26-160 58-296z m294-310a1143 1143 0 0 1 138 117 1137 1137 0 0 1 118 138 1132 1132 0 0 1-118 138 1145 1145 0 0 1-138 117 1140 1140 0 0 1-139-117 1126 1126 0 0 1-118-138 1130 1130 0 0 1 118-138 1146 1146 0 0 1 139-117z m109 255a110 110 0 1 0-109 109 110 110 0 0 0 109-109z m-63 0a47 47 0 1 1-46-47 47 47 0 0 1 46 47z m9 292a1204 1204 0 0 0 127-110 1212 1212 0 0 0 111-127c84 136 103 252 59 296-33 33-102 32-190-3-35-14-71-34-107-56z m238-347a1219 1219 0 0 0-111-127 1216 1216 0 0 0-127-110c36-22 72-42 107-56 88-35 157-36 190-3 44 45 25 161-59 296z" horiz-adv-x="875" />

<glyph glyph-name="mountains-light" unicode="&#xe802;" d="M1242 55l-379 582c-12 17-31 26-50 26-20 0-39-9-51-26l-101-156-138 216c-13 19-33 28-54 28s-42-9-54-28l-406-634c-25-39 4-88 51-88h1134c44 0 71 45 48 80z m-1176-19l401 626c0 0 1 1 2 1l1 0 400-625-804-2z m871 2c-1 8-3 17-8 25l-231 360 115 176 366-561h-242z" horiz-adv-x="1250" />

<glyph glyph-name="users-class-light" unicode="&#xe803;" d="M1063 413c-87 0-157-70-157-157s70-156 157-156 156 70 156 156-70 157-156 157z m0-250c-52 0-94 42-94 93s42 94 94 94 93-42 93-94-42-93-93-93z m-594 93c0-86 70-156 156-156s156 70 156 156-70 157-156 157-156-70-156-157z m250 0c0-51-42-93-94-93s-94 42-94 93 42 94 94 94 94-42 94-94z m-531-156c86 0 156 70 156 156s-70 157-156 157-157-70-157-157 70-156 157-156z m0 250c51 0 93-42 93-94s-42-93-93-93-94 42-94 93 42 94 94 94z m914-312h-79c-81 0-148-71-148-157 0-17 14-31 31-31s32 14 32 31c0 52 38 94 85 94h79c47 0 86-42 86-94 0-17 14-31 31-31s31 14 31 31c0 86-67 157-148 157z m-875 0h-79c-81 0-148-71-148-157 0-17 14-31 31-31s32 14 32 31c0 52 38 94 85 94h79c47 0 86-42 86-94 0-17 14-31 31-31s31 14 31 31c0 86-67 157-148 157z m437 0h-78c-82 0-148-71-148-157 0-17 14-31 31-31s31 14 31 31c0 52 39 94 86 94h78c47 0 86-42 86-94 0-17 14-31 31-31s32 14 32 31c0 86-67 157-149 157z m-539 718c0 18 14 32 31 32h938c17 0 31-14 31-32v-291c23-7 44-16 63-30v321c0 52-43 94-94 94h-938c-51 0-93-42-93-94v-321c18 14 40 23 62 30v291z" horiz-adv-x="1250" />

<glyph glyph-name="lightbulb-on-light" unicode="&#xe805;" d="M625 725a219 219 0 0 1-219-219 31 31 0 0 1 63 0 156 156 0 0 0 156 157 31 31 0 0 1 0 62z m0 125c-201 0-344-163-344-344a342 342 0 0 1 85-226c50-57 99-150 103-180l0-147a31 31 0 0 1 5-17l48-72a31 31 0 0 1 26-14h154a31 31 0 0 1 26 14l48 72a32 32 0 0 1 5 17l0 147c5 31 53 123 103 180a344 344 0 0 1-259 570z m94-887l-34-51h-120l-34 51 0 12h188z m0 75h-188l0 62h188z m118 283c-28-31-71-94-99-158h-226c-28 64-71 127-99 158a280 280 0 0 0-69 185c0 151 118 282 281 282 155 0 281-127 281-282a281 281 0 0 0-69-185z m-649 185a31 31 0 0 1-32 32h-125a31 31 0 0 1 0-63h125a31 31 0 0 1 32 31z m843 219a32 32 0 0 1 14 3l125 63a31 31 0 0 1-28 56l-125-63a31 31 0 0 1 14-59z m188-187h-125a31 31 0 0 1 0-63h125a31 31 0 0 1 0 63z m-986 246l-125 63a31 31 0 0 1-28-56l125-63a32 32 0 0 1 14-3 31 31 0 0 1 14 59z m937-562l-125 62a31 31 0 0 1-28-56l125-62a31 31 0 0 1 28 56z m-951 66a32 32 0 0 1-14-4l-125-62a31 31 0 0 1 28-56l125 62a31 31 0 0 1-14 60z" horiz-adv-x="1250" />

<glyph glyph-name="truck-light" unicode="&#xe806;" d="M1234 100h-46v211c0 33-14 65-37 88l-164 164c-23 24-55 37-88 37h-86v97c0 50-44 91-97 91h-619c-54 0-97-41-97-91v-568c0-51 43-91 97-91h31c-2-11-3-21-3-32 0-86 70-156 156-156s157 70 157 156c0 11-2 21-4 32h382c-2-11-3-21-3-32 0-86 69-156 156-156s156 70 156 156c0 11-1 21-3 32h112c9 0 16 7 16 15v31c0 9-7 16-16 16z m-335 438c16 0 32-7 44-19l164-164c1-1 2-3 3-5h-297v187h86z m-618-626c-51 0-93 42-93 94s42 94 93 94 94-42 94-94-42-94-94-94z m125 188c-29 38-74 63-125 63s-95-25-124-63h-60c-19 0-34 13-34 29v568c0 15 15 28 34 28h619c19 0 34-13 34-28v-597h-344z m563-188c-52 0-94 42-94 94s42 94 94 94 94-42 94-94-42-94-94-94z m0 251c-51 0-96-25-124-63h-32v188h312v-188h-32c-28 38-73 63-124 63z" horiz-adv-x="1250" />

<glyph glyph-name="code-light" unicode="&#xe807;" d="M446-150l-48 14c-7 2-10 8-8 15l274 962c2 7 9 10 15 8l49-13c6-2 9-9 8-15l-275-962c-2-7-9-10-15-9z m-147 245l36 41c4 4 3 10-1 14l-236 200 236 200c4 4 5 10 1 14l-36 41c-4 4-10 4-14 1l-282-249c-4-4-4-10 0-14l282-249c4-3 10-3 14 1z m541-1l282 249c4 4 4 11 0 14l-282 249c-4 3-10 3-14-1l-36-41c-3-4-3-10 1-14l237-200-237-200c-4-4-4-10-1-14l36-41c4-4 10-4 14-1z" horiz-adv-x="1125" />

<glyph glyph-name="chevron-up-light" unicode="&#xe808;" d="M9 134l14-14c9-9 24-9 33 0l382 382 381-382c10-9 24-9 34 0l13 14c9 9 9 24 0 33l-412 413c-9 9-24 9-33 0l-412-413c-9-9-9-24 0-33z" horiz-adv-x="875" />

<glyph glyph-name="chevron-down-light" unicode="&#xe809;" d="M866 532l-14 14c-9 10-24 10-33 0l-381-381-382 381c-9 10-24 10-33 0l-14-14c-10-9-10-24 0-33l412-412c9-9 24-9 33 0l412 412c9 9 9 24 0 33z" horiz-adv-x="875" />

<glyph glyph-name="cog-light" unicode="&#xe80a;" d="M943 266l-64 36a381 381 0 0 1 0 96l64 37c19 10 28 33 21 53-22 74-60 140-112 195-15 16-39 19-57 8l-64-37a379 379 0 0 1-83 48v74c0 21-15 40-36 45-73 18-150 18-224 0-21-5-36-24-36-45v-74a379 379 0 0 1-83-48l-63 37c-19 11-43 8-58-8-51-55-90-121-112-195-6-20 3-43 21-53l64-37a381 381 0 0 1 0-96l-64-36c-18-11-27-33-21-54 22-74 61-140 112-195 15-15 39-19 58-8l63 37a379 379 0 0 1 83-48v-74c0-21 15-40 36-45 73-18 151-18 224 0 21 5 36 24 36 45v74a379 379 0 0 1 83 48l64-37c18-11 42-7 57 8 52 55 90 121 112 195 7 21-2 43-21 54z m-128-197l-91 53c-52-46-71-57-138-81v-104a424 424 0 0 0-172 0v104c-65 24-84 34-138 81l-91-53c-38 43-68 94-86 149l91 52c-13 69-13 91 0 160l-91 52c18 55 48 106 86 149l91-52c53 45 72 56 138 80v104a423 423 0 0 0 172 0v-104c66-24 85-35 138-80l91 52c38-43 68-94 86-149l-91-52c13-69 13-91 0-160l91-52c-18-55-48-106-86-149z m-315 469c-103 0-187-85-187-188s84-187 187-187 188 84 188 187-85 188-188 188z m0-313c-69 0-125 56-125 125s56 125 125 125 125-56 125-125-56-125-125-125z" horiz-adv-x="1000" />

<glyph glyph-name="instagram" unicode="&#xe80b;" d="M438 575c-124 0-225-101-225-225s101-224 225-224 224 100 224 224-100 225-224 225z m0-371c-81 0-146 66-146 146s65 146 146 146 146-65 146-146-66-146-146-146z m286 380c0-29-24-53-53-53-29 0-52 24-52 53s23 52 52 52 53-23 53-52z m148-53c-3 70-19 132-70 183-52 51-114 67-184 71-72 4-289 4-361 0-70-4-132-20-183-71s-68-113-71-183c-4-72-4-289 0-361 3-70 19-132 71-184s113-67 183-70c72-5 289-5 361 0 70 3 132 19 184 70 51 52 67 114 70 184 4 72 4 288 0 361z m-93-439c-15-38-45-68-83-83-58-23-195-18-258-18s-201-5-258 18c-39 15-68 45-83 83-23 58-18 195-18 258s-5 201 18 258c15 39 44 68 83 83 57 23 194 18 258 18s200 5 258-18c38-15 68-44 83-83 23-57 18-194 18-258s5-200-18-258z" horiz-adv-x="875" />

<glyph glyph-name="hashtag-light" unicode="&#xe80c;" d="M872 494l3 16c2 14-9 28-23 28h-193l40 222c2 14-9 28-23 28h-16a23 23 0 0 1-23-20l-41-230h-249l39 222c3 14-8 28-23 28h-16a23 23 0 0 1-23-20l-41-230h-201a23 23 0 0 1-23-20l-3-15c-2-15 9-28 23-28h193l-45-250h-201a23 23 0 0 1-23-19l-3-16c-2-14 9-27 23-27h193l-40-223c-2-14 9-28 23-28h16a23 23 0 0 1 23 20l42 231h249l-40-223c-3-14 8-28 23-28h16a23 23 0 0 1 23 20l41 231h201a23 23 0 0 1 23 19l3 15c2 15-9 28-23 28h-193l45 250h201a23 23 0 0 1 23 19z m-332-269h-249l44 250h249l-44-250z" horiz-adv-x="875" />

<glyph glyph-name="bullseye-arrow-light" unicode="&#xe80d;" d="M596 657l47-105-181-180c-12-12-12-32 0-44 6-6 14-9 22-9s16 3 22 9l181 180 105-47a40 40 0 0 1 41 10l124 125c21 21 13 57-16 66l-108 36-37 109c-5 18-21 27-38 27-10 0-20-3-28-11l-124-125a40 40 0 0 1-10-41z m153 96l24-75 10-29 30-10 74-25-87-88-96 43-43 96 88 88z m197-257l-51-51c7-30 11-62 11-95 0-233-189-422-422-422s-421 189-421 422 189 422 421 422c33 0 65-4 96-11l51 51a484 484 0 0 1-147 22c-267 0-484-216-484-484s217-484 484-484 485 217 485 484c0 51-8 100-23 146z m-409 141a104 104 0 0 0-6 29c-15 2-31 4-47 4-177 0-320-143-320-320 0-177 143-320 320-320 177 0 321 143 321 320 0 16-3 32-5 48-10 0-19 1-28 4-4 2 2-1-41 18 7-22 11-46 11-70 0-142-115-258-258-258s-257 116-257 258 115 258 257 258c25 0 48-5 70-11-19 42-16 36-17 40z m-53-131c-86 0-156-70-156-156s70-156 156-156 157 70 157 156c0 7-2 14-2 22l-88-88 0 0c-17-17-41-28-67-28-51 0-93 42-93 94 0 26 10 49 27 66l0 0 88 88c-7 1-14 2-22 2z" horiz-adv-x="969" />

<glyph glyph-name="leaf-solid" unicode="&#xe80e;" d="M1067 831c-11 25-42 25-55 2-61-105-169-170-293-170h-156c-207 0-375-168-375-375 0-14 1-27 2-40 125 89 305 165 560 165 17 0 31-15 31-32s-14-31-31-31c-491 0-699-301-745-414-13-32 2-68 34-81 32-14 68 2 82 33 2 7 40 94 140 177 63-85 184-167 342-150 306 22 522 297 522 634 0 98-21 199-58 282z" horiz-adv-x="1125" />

<glyph glyph-name="rocket-launch-light" unicode="&#xe80f;" d="M719 678a109 109 0 1 1 109-109 109 109 0 0 1-109 109z m0-156a47 47 0 1 0 47 47 47 47 0 0 0-47-47z m268 290c-3 11-14 22-25 25-62 13-111 13-160 13-202 0-323-108-413-250h-203c-32 0-70-23-84-52l-97-193a56 56 0 0 1-5-21 47 47 0 0 1 47-46h203a188 188 0 0 0 188-188v-203a47 47 0 0 1 47-47 56 56 0 0 1 21 5l192 96c29 15 52 52 52 84v204c142 91 250 212 250 412 0 50 0 99-13 161z m-914-462l85 170c3 8 20 18 28 18h166c-27-55-62-125-93-188l0-1c-3 0-140 1-186 1z m615-315c0-8-10-24-18-28l-170-85c0 47-1 184-1 187l1 0c63 31 133 66 187 93l1 0z m-200 138a249 249 0 0 1-165 165c102 203 195 450 479 450 41 0 80 0 127-9 9-47 9-86 9-128 0-283-248-377-450-478z m-288 52c-94 0-196-77-200-313h0v-62h63v0c335 7 361 225 261 325-29 30-75 50-124 50z m103-214c-25-60-112-96-240-98 0 7-3 249 137 249 30 0 61-12 80-31 25-25 42-75 23-120z" horiz-adv-x="1000" />

<glyph glyph-name="exclamation-circle-light" unicode="&#xe810;" d="M500 772c232 0 422-188 422-422 0-233-189-422-422-422-233 0-422 189-422 422 0 233 189 422 422 422m0 62c-267 0-484-217-484-484 0-268 217-484 484-484s484 216 484 484c0 267-216 484-484 484z m-22-234h44c14 0 24-11 24-24l-14-328c0-13-11-23-23-23h-18c-12 0-23 10-23 23l-14 328c0 13 10 24 24 24z m22-414c-30 0-55-24-55-55s25-54 55-54 55 24 55 54-25 55-55 55z" horiz-adv-x="1000" />

<glyph glyph-name="google-play-brands" unicode="&#xe811;" d="M635 392l-431 433 549-315-118-118z m-543 458c-26-13-43-37-43-69v-862c0-31 17-56 43-69l501 500-501 500z m830-441l-115 67-128-126 128-126 118 67c35 28 35 90-3 118z m-718-534l549 315-118 118-431-433z" horiz-adv-x="1000" />

<glyph glyph-name="calculator-light" unicode="&#xe812;" d="M156-25h563c17 0 31 14 31 31v375c0 18-14 32-31 32h-563c-17 0-31-14-31-32v-375c0-17 14-31 31-31z m407 188v187h125v-312h-125v125z m-188 187h125v-125h-125v125z m0-187h125v-125h-125v125z m-187 187h125v-125h-125v125z m0-187h125v-125h-125v125z m593 687h-687c-50 0-94-44-94-94v-812c0-50 44-94 94-94h687c50 0 94 44 94 94v812c0 50-44 94-94 94z m32-906c0-16-16-32-32-32h-687c-16 0-31 16-31 32v531h750v-531z m0 594h-750v218c0 16 15 32 31 32h687c16 0 32-16 32-32v-218z" horiz-adv-x="875" />

<glyph glyph-name="leaf-light" unicode="&#xe813;" d="M1067 831c-6 13-17 19-28 19-10 0-21-5-27-17-61-105-169-170-293-170h-156c-207 0-375-168-375-375 0-41 6-80 18-117-149-128-203-277-204-279-6-17 3-35 19-40 15-6 34 2 40 19 1 2 46 127 171 240 63-118 187-199 331-199 13 0 26 1 39 3 307 22 523 297 523 634 0 98-21 199-58 282z m-471-854c-12-1-23-2-33-2-124 0-230 73-281 177 101 75 243 136 437 136 17 0 31 14 31 31s-14 31-31 31c-201 0-350-60-459-137-6 24-10 49-10 75 0 172 140 312 313 312h156c123 0 236 56 312 151 20-63 32-134 32-202 0-312-196-553-467-572z" horiz-adv-x="1125" />

<glyph glyph-name="code-merge-light" unicode="&#xe814;" d="M594 475c-82 0-149-62-156-142-49 2-120 15-173 62-40 35-64 84-74 146 70 16 122 79 122 153 0 86-70 156-157 156s-156-70-156-156c0-76 54-139 125-153v-382c-71-14-125-77-125-153 0-86 70-156 156-156s157 70 157 156c0 76-54 139-125 153v227c10-14 22-27 36-38 71-62 163-76 221-78 21-62 79-107 149-107 86 0 156 69 156 156s-70 156-156 156z m-531 219c0 52 42 94 93 94s94-42 94-94-42-94-94-94-93 42-93 94z m187-688c0-52-42-94-94-94s-93 42-93 94 42 94 93 94 94-42 94-94z m344 219c-52 0-94 42-94 94s42 94 94 94 94-42 94-94-42-94-94-94z" horiz-adv-x="750" />

<glyph glyph-name="plus-light" unicode="&#xe815;" d="M734 397h-312v312c0 9-7 16-16 16h-62c-9 0-16-7-16-16v-312h-312c-9 0-16-7-16-16v-62c0-9 7-16 16-16h312v-312c0-9 7-16 16-16h62c9 0 16 7 16 16v312h312c9 0 16 7 16 16v62c0 9-7 16-16 16z" horiz-adv-x="750" />

<glyph glyph-name="cogs-light" unicode="&#xe816;" d="M1052 466l-5 8c-8-1-16-1-24 0l-5-8c-11-18-33-26-53-19-27 8-45 17-67 35-18 14-22 40-11 59l5 9c-4 6-8 13-12 20h-18c-22 0-41 16-46 39-5 26-5 47 0 75 5 22 24 38 47 38h17c4 7 8 14 12 21l-5 8c-11 20-7 45 10 60 21 17 39 28 66 37 21 7 44-2 55-21l5-9c8 1 16 1 24 0l5 9c12 19 35 28 56 21 26-9 44-19 65-38 18-14 22-39 10-59l-5-8c5-7 9-14 12-21h10c23 0 42-16 46-38 5-27 6-48 0-76-4-22-23-38-46-38h-10c-3-7-7-14-12-20l5-9c12-20 7-45-10-59-21-17-39-26-67-35-20-7-43 1-54 19z m24 68l21-36c13 6 25 13 36 21l-21 36 13 15c9 11 17 23 21 37l7 18h41c2 14 2 28 0 42h-41l-7 18c-5 14-12 26-21 38l-13 14 21 36c-11 9-24 16-37 21l-20-36-19 4c-15 3-29 3-43 0l-19-4-21 36c-13-5-25-12-36-21l20-36-12-14c-10-11-17-24-22-38l-6-18h-41c-2-14-2-28 0-42h41l6-18c5-14 12-26 22-37l12-15-20-36c11-8 23-15 36-21l21 36 19-4c14-2 29-2 43 0l19 4z m-792-572v62c-25 11-49 25-71 41l-54-31c-19-11-43-7-58 9-47 52-75 97-99 172-7 21 2 44 21 55l54 31c-4 28-4 55 0 82l-54 31c-19 11-28 34-21 55 24 75 51 120 99 172 15 16 39 20 58 9l54-31c22 17 45 30 71 41v62c0 22 15 41 36 46 68 15 121 17 199 0 21-5 37-24 37-46v-62c25-11 49-24 71-41l54 31c19 11 43 7 58-9 52-58 81-109 101-173 7-20-1-43-19-54l-49-31c3-27 3-55 0-82l55-34c16-11 25-31 21-50-14-61-65-126-109-174-15-16-39-20-58-9l-54 31c-22-16-46-30-71-41v-62c0-22-15-41-37-45-73-17-127-16-199 0-21 4-36 24-36 45z m62 13c49-10 99-10 147 0v93l21 7c33 12 63 29 90 52l17 14 81-46c32 37 66 80 82 127l-81 47 4 21c6 35 6 70 0 104l-4 22 81 47c-16 46-50 90-82 127l-81-47-17 15c-27 23-57 40-90 51l-21 8v93c-48 10-98 10-147 0v-93l-21-8c-32-11-63-29-89-52l-17-14-81 47a375 375 0 0 1-73-128l80-46-4-22c-6-34-6-69 0-104l4-21-80-47c15-47 40-90 73-127l81 46 17-14c26-23 56-40 89-52l21-7v-93z m75 205c-89 0-162 73-162 162s73 162 162 162 162-73 162-162-72-162-162-162z m0 262c-54 0-99-45-99-100s44-99 99-99c55 0 100 44 100 99s-45 100-100 100z m631-570l-5 7c-8 0-16 0-24 0l-5-7c-11-18-33-27-53-20-27 8-45 17-67 35-18 15-22 40-11 60l5 8c-4 7-8 14-12 21h-18c-22 0-41 16-46 38-5 27-5 47 0 75 5 22 24 38 47 38h17c4 8 8 14 12 21l-5 9c-11 19-7 44 10 59 21 18 39 28 66 37 21 7 44-1 55-21l5-8c8 0 16 0 24 0l5 8c12 20 35 28 56 21 26-9 44-19 65-37 18-15 22-40 10-59l-5-9c5-7 9-13 12-21h10c23 0 42-16 46-38 5-27 6-47 0-75-4-22-23-38-46-38h-10c-3-7-7-14-12-21l5-8c12-20 7-45-10-60-21-17-39-26-67-35-20-6-43 2-54 20z m24 67l21-35c13 5 25 12 36 21l-21 35 13 15c9 11 17 24 21 38l7 18h41c2 14 2 28 0 42h-41l-7 18c-5 14-12 26-21 37l-13 15 21 36c-11 8-23 15-36 21l-21-36-19 3c-14 3-29 3-43 0l-19-3-21 36c-13-6-25-13-36-21l20-36-12-15c-10-11-17-23-22-37l-6-18h-41c-2-14-2-28 0-42h41l6-18c5-14 12-27 22-38l12-15-20-35c11-9 23-16 36-21l21 35 19-3c14-3 29-3 43 0l19 3z m18 114c0 35-28 63-63 63s-62-28-62-63 28-62 62-62 63 28 63 62z m0 595c0 34-28 62-63 62s-62-28-62-62 28-63 62-63 63 28 63 63z" horiz-adv-x="1250" />

<glyph glyph-name="app-store-ios-brands" unicode="&#xe817;" d="M781 788h-687c-52 0-94-42-94-94v-688c0-52 42-94 94-94h687c52 0 94 42 94 94v688c0 52-42 94-94 94z m-533-689c-11-19-35-25-53-14-19 11-25 35-14 53l27 48c32 10 58 3 78-22l-38-65z m271 105h-355c-21 0-39 18-39 39s18 39 39 39h100l127 222-40 69c-10 18-4 42 15 53 18 11 42 4 53-14l17-30 18 30c11 19 35 25 53 14 19-11 25-35 14-53l-167-291h121c40 0 62-46 44-78z m192 0h-57l39-66c10-19 4-42-15-53-18-11-42-4-53 14-64 111-112 195-144 250-33 57-10 114 13 133 26-45 64-111 115-200h102c21 0 39-17 39-39 0-21-18-39-39-39z" horiz-adv-x="875" />

<glyph glyph-name="envelope-light" unicode="&#xe818;" d="M906 725h-812c-52 0-94-42-94-94v-562c0-52 42-94 94-94h812c52 0 94 42 94 94v562c0 52-42 94-94 94z m-812-62h812c17 0 32-15 32-32v-81c-43-36-104-85-295-236-33-27-98-90-143-89-45-1-110 62-143 89-191 151-252 200-294 236v81c0 17 14 32 31 32z m812-625h-812c-17 0-31 14-31 31v400c44-36 114-93 255-204 40-32 111-103 182-102 71-1 141 69 182 102 141 111 211 168 256 204v-400c0-17-15-31-32-31z" horiz-adv-x="1000" />

<glyph glyph-name="map-marker-alt-solid" unicode="&#xe819;" d="M337-130c-284 412-337 454-337 605 0 207 168 375 375 375s375-168 375-375c0-151-53-193-336-605-19-27-59-27-77 0z m38 449c86 0 156 70 156 156s-70 156-156 156-156-70-156-156 70-156 156-156z" horiz-adv-x="750" />

<glyph glyph-name="download-light" unicode="&#xe81a;" d="M883 6c0-21-18-39-39-39s-39 18-39 39 17 39 39 39 39-17 39-39z m-164 39c-22 0-39-17-39-39s17-39 39-39 39 18 39 39-18 39-39 39z m281 94v-203c0-48-38-86-86-86h-828c-47 0-86 38-86 86v203c0 48 39 86 86 86h194l-110 110c-49 49-14 134 55 134h103v303c0 43 35 78 78 78h188c43 0 78-35 78-78v-303h103c69 0 104-85 55-134l-110-110h194c48 0 86-38 86-86z m-511-34c6-7 16-7 22 0l275 274c10 10 3 27-11 27h-166v366c0 9-7 16-15 16h-188c-8 0-15-7-15-16v-366h-166c-14 0-21-17-11-27l275-274z m449 34c0 13-11 24-24 24h-257l-102-103c-30-30-80-30-110 0l-102 103h-257c-13 0-23-11-23-24v-203c0-13 10-24 23-24h828c13 0 24 11 24 24v203z" horiz-adv-x="1000" />

<glyph glyph-name="play-solid" unicode="&#xe81b;" d="M829 431l-688 406c-55 33-141 1-141-81v-812c0-74 80-118 141-81l688 406c61 37 61 126 0 162z" horiz-adv-x="875" />

<glyph glyph-name="times-light" unicode="&#xe81c;" d="M379 350l200 200 41 42c7 6 7 16 0 22l-44 44c-6 6-16 6-22 0l-241-242-242 242c-6 6-16 6-22 0l-44-44c-7-6-7-16 0-22l241-242-241-242c-7-6-7-16 0-22l44-44c6-6 16-6 22 0l242 242 200-201 41-41c6-6 16-6 22 0l44 44c7 6 7 16 0 22l-241 242z" horiz-adv-x="625" />

<glyph glyph-name="linkedin-in" unicode="&#xe81d;" d="M196-25h-181v584h181z m-91 664c-58 0-105 48-105 106a105 105 0 0 0 210 0c0-58-47-106-105-106z m770-664h-181v284c0 68-2 155-94 155-95 0-109-74-109-150v-289h-181v584h174v-79h2c24 45 83 94 172 94 183 0 217-121 217-278v-321z" horiz-adv-x="875" />

<glyph glyph-name="long-arrow-right-light" unicode="&#xe81e;" d="M608 593l-14-14c-9-9-9-24 0-33l164-163h-735c-12 0-23-10-23-23v-20c0-13 11-23 23-23h735l-164-163c-9-9-9-24 0-33l14-14c9-9 24-9 33 0l227 226c9 10 9 24 0 34l-227 226c-9 9-24 9-33 0z" horiz-adv-x="875" />

<glyph glyph-name="pencil-solid" unicode="&#xe81f;" d="M973 573l-91-91c-9-9-24-9-33 0l-217 217c-9 9-9 24 0 33l91 91c36 36 95 36 132 0l118-118c36-36 36-96 0-132z m-418 82l-513-513-41-237c-6-32 22-60 54-54l237 41 513 513c10 9 10 24 0 33l-216 217c-10 9-25 9-34 0z m-383-633h94v-71l-126-22-61 61 22 126h71v-94z" horiz-adv-x="1000" />

<glyph glyph-name="farm-light" unicode="&#xe820;" d="M302 475l31 63h-270v84c0 82 58 156 139 165a156 156 0 0 0 173-156v-13a125 125 0 0 0 56 53c-21 96-100 173-200 179a219 219 0 0 1-231-219v-750a31 31 0 0 1 31-31h219v62h-187v563z m495-62h-156a16 16 0 0 1-16-16v-156a16 16 0 0 1 16-16h156a16 16 0 0 1 16 16v156a16 16 0 0 1-16 16z m-47-125h-62v62h62z m368 81l-108 217a63 63 0 0 1-30 29l-236 105a63 63 0 0 1-51 0l-235-105c-13-6-26-21-30-29l-109-217a63 63 0 0 1-6-28v-460a31 31 0 0 1 31-31h250a31 31 0 0 1 31 31v157h188v-157a31 31 0 0 1 31-31h250a31 31 0 0 1 31 31v460a63 63 0 0 1-7 28z m-55-457h-188v157a31 31 0 0 1-31 31h-250a31 31 0 0 1-31-31v-157h-188v429l108 217 236 105 235-105 109-217z" horiz-adv-x="1125" />

<glyph glyph-name="minus-light" unicode="&#xe821;" d="M734 397h-718c-9 0-16-7-16-16v-62c0-9 7-16 16-16h718c9 0 16 7 16 16v62c0 9-7 16-16 16z" horiz-adv-x="750" />

<glyph glyph-name="chevron-left-light" unicode="&#xe822;" d="M466-79l14 14c9 9 9 24 0 33l-382 382 382 382c9 9 9 24 0 33l-14 14c-9 9-24 9-33 0l-413-412c-9-10-9-24 0-34l413-412c9-9 24-9 33 0z" horiz-adv-x="500" />

<glyph glyph-name="chevron-right-light" unicode="&#xe823;" d="M34 779l-14-14c-9-9-9-24 0-33l382-382-382-382c-9-9-9-24 0-33l14-14c9-9 24-9 33 0l413 412c9 10 9 24 0 34l-413 412c-9 9-24 9-33 0z" horiz-adv-x="500" />

<glyph glyph-name="award-light" unicode="&#xe824;" d="M375 663c-103 0-187-84-187-188s84-187 187-187 188 84 188 187-85 188-188 188z m0-313c-69 0-125 56-125 125s56 125 125 125 125-56 125-125-56-125-125-125z m343-32c28 28 38 69 28 107-12 48-12 40 0 88 10 38 0 79-28 107-34 34-30 28-43 75-10 38-40 69-77 79-46 12-41 9-74 43-28 28-69 40-107 29-45-12-39-12-84 0-38 11-79-1-107-29-34-34-28-31-74-43-37-10-67-41-77-79-13-47-9-41-43-75-27-28-38-69-28-107 12-48 12-40 0-88-10-38 1-79 28-107 34-34 30-29 43-75 4-15 11-28 21-40l-94-229c-8-21 7-43 29-43 1 0-5-1 104 4l71-75c7-7 15-10 23-10 12 0 24 7 29 19l102 253a46 46 0 0 0 30 0l102-253c5-12 17-19 29-19 8 0 17 3 23 10l71 74c110-4 103-3 104-3 22 0 37 22 29 43l-93 229c9 12 16 25 20 40 13 47 9 40 43 75z m-500-380c-44 47-32 34-57 60-35-1-18-1-82-3l69 171c2-1 3-2 4-2 43-12 40-9 62-31 20-20 45-31 70-32l-66-163z m454 57c-65 2-48 2-83 3-25-26-13-13-57-60l-66 163c25 2 51 12 70 32 22 23 19 20 62 31 1 0 3 1 4 2l70-171z m-57 264c-5-17-17-30-34-35-46-12-55-12-90-47-15-16-39-19-58-7-35 22-81 22-116 0-19-12-43-9-58 7-34 34-44 35-90 47-17 5-29 18-34 35-16 59-14 59-58 103-13 12-17 30-13 47 16 60 16 60 0 119-4 17 1 36 13 48 43 44 42 43 58 103 5 17 17 30 34 35 60 16 58 15 102 59 10 11 27 18 45 13 60-16 58-16 118 0 16 4 33 0 45-13 44-44 43-43 102-59 17-5 29-18 34-35 16-60 15-59 59-103 12-12 16-31 12-48-16-59-16-59 0-119 4-17 0-35-12-47-44-44-43-43-59-103z" horiz-adv-x="750" />

<glyph glyph-name="users-light" unicode="&#xe825;" d="M1063 413c86 0 156 69 156 156s-70 156-156 156-157-70-157-156 70-156 157-156z m0 250c51 0 93-42 93-94s-42-94-93-94-94 42-94 94 42 94 94 94z m-438-313c121 0 219 98 219 219s-98 219-219 219-219-98-219-219 98-219 219-219z m0 375c86 0 156-70 156-156s-70-156-156-156-156 70-156 156 70 156 156 156z m477-375h-79c-29 0-57-9-80-25 19-13 35-27 50-44 9 4 20 7 30 7h79c47 0 86-42 86-94 0-17 14-31 31-31s31 14 31 31c0 86-67 156-148 156z m-914 63c86 0 156 69 156 156s-70 156-156 156-157-70-157-156 70-156 157-156z m0 250c51 0 93-42 93-94s-42-94-93-94-94 42-94 94 42 94 94 94z m593-352c-65 0-81-23-156-23-75 0-91 23-156 23-71 0-140-32-181-92-24-36-38-79-38-125v-88c0-52 42-94 94-94h562c52 0 94 42 94 94v88c0 46-14 89-38 125-41 60-110 92-181 92z m157-305c0-17-15-31-32-31h-562c-17 0-31 14-31 31v88c0 32 9 64 27 90 27 40 75 64 128 64 54 0 73-23 157-23s103 23 156 23c54 0 102-24 129-64 18-26 27-58 27-90v-88z m-631 319c-23 16-51 25-80 25h-79c-81 0-148-70-148-156 0-17 14-31 31-31s32 14 32 31c0 52 38 94 85 94h79c10 0 21-3 30-7 15 17 32 31 50 44z" horiz-adv-x="1250" />

<glyph glyph-name="arrow-right-light" unicode="&#xe826;" d="M423 779l-14-14c-9-9-9-24 0-33l349-349h-735c-12 0-23-10-23-23v-20c0-13 11-23 23-23h735l-349-349c-9-9-9-24 0-33l14-14c9-9 24-9 33 0l412 412c9 10 9 24 0 34l-412 412c-9 9-24 9-33 0z" horiz-adv-x="875" />

<glyph glyph-name="arrow-left-light" unicode="&#xe827;" d="M452-79l14 14c9 9 9 24 0 33l-349 349h735c13 0 23 10 23 23v20c0 13-10 23-23 23h-735l349 349c9 9 9 24 0 33l-14 14c-9 9-24 9-33 0l-412-412c-9-10-9-24 0-34l412-412c9-9 24-9 33 0z" horiz-adv-x="875" />

<glyph glyph-name="clipboard-list-check-light" unicode="&#xe828;" d="M656 725h-173c1 5 1 10 1 16 0 60-49 109-109 109s-109-49-109-109c0-6 0-11 1-16h-173c-52 0-94-42-94-94v-687c0-52 42-94 94-94h562c52 0 94 42 94 94v687c0 52-42 94-94 94z m-281 63c26 0 47-21 47-47s-21-47-47-47-47 21-47 47 21 47 47 47z m313-844c0-17-15-32-32-32h-562c-17 0-31 15-31 32v687c0 17 14 32 31 32h94v-40c0-12 10-23 23-23h328c13 0 24 11 24 23v40h93c17 0 32-15 32-32v-687z m-469 265c-26 0-47-20-47-46s21-47 47-47 47 21 47 47-21 46-47 46z m328-15h-219c-8 0-15-7-15-16v-31c0-9 7-16 15-16h219c9 0 16 7 16 16v31c0 9-7 16-16 16z m-300 128l125 124c4 4 4 11 0 15l-25 25c-4 4-10 4-15 0l-92-92-41 40c-4 5-10 5-15 0l-24-24c-4-4-4-11 0-15l72-73c4-4 10-4 15 0z m300 59h-152l-63-62h215c9 0 16 7 16 15v32c0 8-7 15-16 15z" horiz-adv-x="750" />

<glyph glyph-name="images-light" unicode="&#xe829;" d="M1031 788h-812c-52 0-94-42-94-94v-31h-31c-52 0-94-42-94-94v-563c0-52 42-94 94-94h812c52 0 94 42 94 94v32h31c52 0 94 42 94 93v563c0 52-42 94-94 94z m-93-782c0-17-14-31-32-31h-812c-17 0-31 14-31 31v563c0 17 14 31 31 31h31v-469c0-51 42-93 94-93h719v-32z m125 125c0-17-14-31-32-31h-812c-17 0-31 14-31 31v563c0 17 14 31 31 31h812c18 0 32-14 32-31v-563z m-719 328c60 0 109 49 109 110s-49 109-109 109-110-49-110-109 49-110 110-110z m0 157c26 0 47-21 47-47s-21-47-47-47-47 21-47 47 21 47 47 47z m470-45c-18 18-48 18-66 0l-185-186-61 61c-18 18-48 18-66 0l-172-172a47 47 0 0 1-14-33v-55c0-13 11-23 23-23h704c13 0 23 10 23 23v180c0 12-5 24-14 33l-172 172z m124-346h-625v9l156 156 94-93 218 218 157-156v-134z" horiz-adv-x="1125" />

<glyph glyph-name="tachometer-fastest-light" unicode="&#xe82a;" d="M932 256l-255-43c-20 44-63 75-114 75-69 0-125-56-125-125s56-125 125-125c65 0 118 50 123 114l257 42c17 3 28 19 25 36s-19 29-36 26z m-369-156c-35 0-63 28-63 63s28 62 63 62 62-28 62-62-28-63-62-63z m0 688c-311 0-563-252-563-563 0-103 28-200 76-283 11-19 32-30 54-30h865c22 0 43 11 54 30 48 83 76 180 76 283 0 311-252 563-562 563z m432-813l-865-1c-44 76-67 163-67 251 0 276 224 500 500 500s500-224 500-500c0-88-24-175-68-250z" horiz-adv-x="1125" />

<glyph glyph-name="ballot-check-light" unicode="&#xe82b;" d="M219 6h62c35 0 63 28 63 63v62c0 35-28 63-63 63h-62c-35 0-63-28-63-63v-62c0-35 28-63 63-63z m0 125h62v-62h-62v62z m0 375h62c35 0 63 28 63 63v62c0 35-28 63-63 63h-62c-35 0-63-28-63-63v-62c0-35 28-63 63-63z m0 125h62v-62h-62v62z m594 219h-750c-35 0-63-28-63-62v-876c0-34 28-62 63-62h750c34 0 62 28 62 62v876c0 34-28 62-62 62z m0-938h-750v876h750v-876z m-391 657h250c9 0 16 7 16 15v32c0 8-7 15-16 15h-250c-9 0-16-7-16-15v-32c0-8 7-15 16-15z m0-250h250c9 0 16 7 16 15v32c0 8-7 15-16 15h-250c-9 0-16-7-16-15v-32c0-8 7-15 16-15z m0-250h250c9 0 16 7 16 15v32c0 8-7 15-16 15h-250c-9 0-16-7-16-15v-32c0-8 7-15 16-15z m-190 222c4-4 10-4 15 0l125 124c4 4 4 11 0 15l-25 25c-4 4-10 4-15 0l-92-93-41 41c-4 4-10 4-15 0l-24-24c-4-5-4-11 0-15l72-73z" horiz-adv-x="875" />

<glyph glyph-name="landmark-light" unicode="&#xe82c;" d="M1105 670l-520 176c-8 3-15 4-22 4s-15-1-22-4l-521-176a31 31 0 0 1-20-29v-72c0-17 14-31 31-31h1063c17 0 31 14 31 31v72c0 13-8 25-20 29z m-42-70h-1000v18l500 170 500-170v-18z m46-688h-46v126c0 34-32 62-72 62h-22v375h-63v-375h-187v375h-63v-375h-187v375h-63v-375h-187v375h-63v-375h-22c-39 0-71-28-71-62v-126h-47c-9 0-16-7-16-15v-31c0-9 7-16 16-16h1093c9 0 16 7 16 16v31c0 8-7 15-16 15z m-109 0h-875v123c1 1 4 3 9 3h857c5 0 8-2 9-3v-123z" horiz-adv-x="1125" />

<glyph glyph-name="chart-bar-light" unicode="&#xe82d;" d="M828 163h31c9 0 16 7 16 15v469c0 9-7 16-16 16h-31c-8 0-15-7-15-16v-469c0-8 7-15 15-15z m-187 0h31c9 0 16 7 16 15v281c0 9-7 16-16 16h-31c-9 0-16-7-16-16v-281c0-8 7-15 16-15z m-375 0h31c9 0 16 7 16 15v156c0 9-7 16-16 16h-31c-9 0-16-7-16-16v-156c0-8 7-15 16-15z m187 0h31c9 0 16 7 16 15v406c0 9-7 16-16 16h-31c-8 0-15-7-15-16v-406c0-8 7-15 15-15z m531-125h-921v671c0 9-7 16-16 16h-31c-9 0-16-7-16-16v-703c0-17 14-31 31-31h953c9 0 16 7 16 16v31c0 9-7 16-16 16z" horiz-adv-x="1000" />

<glyph glyph-name="check-light" unicode="&#xe82e;" d="M808 670l-547-546-194 193c-9 9-24 9-33 0l-22-22c-9-9-9-24 0-33l232-232c9-10 24-10 33 0l586 585c9 9 9 24 0 33l-22 22c-9 10-24 10-33 0z" horiz-adv-x="875" />

<glyph glyph-name="phone-alt-light" unicode="&#xe82f;" d="M963 164l-212 91a61 61 0 0 1-71-18l-86-105a684 684 0 0 0-312 312l106 86a61 61 0 0 1 17 71l-91 212a61 61 0 0 1-70 35l-197-45a61 61 0 0 1-47-59c0-495 401-894 894-894a61 61 0 0 1 59 47l45 197a61 61 0 0 1-35 70z m-71-252c-458 1-829 372-829 830l194 45 90-210-142-116c94-201 204-311 406-406l117 142 209-90z" horiz-adv-x="1000" />

<glyph glyph-name="twitter" unicode="&#xe830;" d="M897 554c1-9 1-18 1-27 0-271-206-583-583-583-117 0-224 33-315 92 16-2 32-3 49-3 96 0 184 33 255 88-90 2-166 61-192 142 13-2 26-3 39-3 18 0 37 3 54 7-94 19-164 102-164 201v3c27-15 59-25 92-26-55 36-91 99-91 170 0 39 10 74 28 104 101-124 252-206 422-214-3 15-5 31-5 46 0 113 92 205 205 205 59 0 113-25 150-64 46 8 91 26 130 49-15-48-48-87-90-113 41 5 81 16 118 32-28-41-63-77-103-106z" horiz-adv-x="1000" />

<glyph glyph-name="xing" unicode="&#xe831;" d="M318 440c-4-7-49-87-137-241-10-17-21-25-35-25h-127c-15 0-24 15-16 28l134 237c1 0 1 1 0 1l-85 148c-9 15 0 27 16 27h127c15 0 26-8 36-24l87-151z m429 320l-281-494v-1l179-325c8-14 0-28-17-28h-127c-15 0-27 8-35 24l-181 329c7 12 101 178 283 499 9 16 21 24 34 24h129c15 0 24-14 16-28z" horiz-adv-x="750" />

<glyph glyph-name="file-alt-light" unicode="&#xe832;" d="M723 659l-164 164c-18 17-42 27-67 27h-398c-52 0-94-42-94-94v-812c0-52 42-94 94-94h562c52 0 94 42 94 94v648c0 25-10 49-27 67z m-45-44c4-5 7-9 9-15h-187v187c6-2 10-5 15-9l163-163z m-22-703h-562c-17 0-31 15-31 32v812c0 17 14 32 31 32h344v-204c0-26 20-46 46-46h204v-594c0-17-15-32-32-32z m-93 477v-16c0-12-11-23-24-23h-328c-13 0-23 11-23 23v16c0 13 10 24 23 24h328c13 0 24-11 24-24z m0-125v-16c0-12-11-23-24-23h-328c-13 0-23 11-23 23v16c0 13 10 24 23 24h328c13 0 24-11 24-24z m0-125v-16c0-12-11-23-24-23h-328c-13 0-23 11-23 23v16c0 13 10 24 23 24h328c13 0 24-11 24-24z" horiz-adv-x="750" />

<glyph glyph-name="chart-pie-light" unicode="&#xe833;" d="M1031 288h-464l309-309a32 32 0 0 1 23-10c7 0 15 3 20 8 76 72 128 168 143 276 3 18-12 35-31 35z m-133-243l-180 180h275c-15-67-48-129-95-180z m-460 243v463c0 17-14 32-31 32-2 0-3 0-4-1-233-33-411-236-403-480 9-248 221-452 469-452 2 0 4 0 6 0 98 1 189 33 264 86 15 11 16 34 3 47l-304 305z m36-376l-5 0c-213 0-399 180-406 393-7 195 125 365 312 409v-452l18-19 277-277c-59-34-126-53-196-54z m526 502c-16 233-203 420-436 436-1 0-1 0-2 0-17 0-31-15-31-32v-437h437c18 0 33 15 32 33z m-406 30v340c174-27 313-166 340-340h-340z" horiz-adv-x="1063" />

<glyph glyph-name="info-circle-light" unicode="&#xe834;" d="M500 772c232 0 422-188 422-422 0-233-189-422-422-422-233 0-422 189-422 422 0 233 189 422 422 422m0 62c-267 0-484-217-484-484 0-268 217-484 484-484s484 216 484 484c0 267-216 484-484 484z m-70-671h23v234h-23c-13 0-24 10-24 23v16c0 13 11 23 24 23h93c13 0 24-10 24-23v-273h23c13 0 24-11 24-24v-16c0-12-11-23-24-23h-140c-13 0-24 11-24 23v16c0 13 11 24 24 24z m70 468c-34 0-62-28-62-62s28-63 62-63 63 28 63 63-28 62-63 62z" horiz-adv-x="1000" />

<glyph glyph-name="route-light" unicode="&#xe835;" d="M844 163h-219c-52 0-94 42-94 93s42 94 94 94h188s187 209 187 313-84 187-187 187-188-84-188-187c0-68 80-181 135-250h-135c-86 0-156-71-156-157s70-156 156-156h219c52 0 94-42 94-94s-42-94-94-94h-604c55 70 135 183 135 251 0 103-84 187-187 187s-188-84-188-187 188-313 188-313h656c86 0 156 70 156 156s-70 157-156 157z m-156 500c0 68 56 125 125 125s125-57 125-125c0-40-59-133-125-216-67 83-125 177-125 216z m-625-500c0 68 56 125 125 125s125-57 125-125c0-40-59-133-125-216-67 83-125 177-125 216z m125 31c-42 0-42-63 0-63 41 0 41 63 0 63z m625 500c-42 0-42-63 0-63 41 0 41 63 0 63z" horiz-adv-x="1000" />

<glyph glyph-name="osi" unicode="&#xe836;" d="M16 330c4 265 190 454 417 484 271 37 499-148 543-393 42-232-86-449-296-535-18-7-28-3-35 15q-52 136-104 272c-6 16-2 26 13 33 48 21 77 57 85 109a140 140 0 0 1-126 160c-76 7-140-46-151-116-11-65 21-125 81-152 19-9 23-17 16-36q-53-137-105-273c-5-14-16-19-31-13-102 39-198 119-255 232-49 96-49 172-52 213z m40 3c1-13 2-28 3-43 12-140 97-280 256-358 6-2 8-1 11 5q43 115 88 229c2 7 1 10-5 13-62 39-92 95-89 168 2 42 18 79 46 110 59 64 151 78 226 35a179 179 0 0 0 88-177c-7-60-37-105-89-136-5-3-7-6-4-12q44-115 88-230c2-6 5-7 11-5 69 33 127 79 172 141 68 94 96 199 82 315-26 229-233 419-499 386-207-25-381-200-385-441z" horiz-adv-x="1000" />

<glyph glyph-name="globe-light" unicode="&#xe837;" d="M484 834c-267 0-484-216-484-484s217-484 484-484 485 216 485 484-217 484-485 484z m378-296h-161c-18 86-47 160-85 213 108-36 196-113 246-213z m-206-188c0-45-3-86-8-125h-327c-5 39-8 80-8 125s3 86 8 125h327c5-39 8-80 8-125z m-172 422c53 0 120-86 153-234h-305c33 148 100 234 152 234z m-131-21c-38-53-67-127-85-213h-161c50 100 138 177 246 213z m-290-401c0 44 6 86 18 125h177c-5-40-8-82-8-125s3-85 8-125h-177c-12 40-18 81-18 125z m44-187h161c18-87 47-161 85-214-108 36-196 114-246 214z m377-235c-52 0-119 86-152 235h305c-33-149-100-235-153-235z m132 21c37 53 67 127 85 214h161c-50-100-138-178-246-214z m95 276c5 40 8 82 8 125s-3 85-8 125h176c13-39 19-81 19-125s-6-85-19-125h-176z" horiz-adv-x="969" />

<glyph glyph-name="hands-heart-light" unicode="&#xe838;" d="M852 816c-29 24-60 34-91 34-45 0-87-21-114-49l-22-23-22 22c-26 29-69 50-114 50-31 0-62-10-91-34-69-60-72-168-11-232l213-223c14-14 36-14 50 0l213 223c61 64 58 172-11 232z m-34-189l-193-203-193 203c-33 34-40 101 6 141 16 14 34 19 52 19 27 0 53-13 69-30l66-69 66 69c16 17 42 31 69 31 18 0 36-6 52-20 46-40 39-106 6-141z m-388-263c-28 38-96 61-146 8-30-33-31-84-5-120l56-77c13-17-12-37-26-21l-121 144v267c0 51-42 97-93 97-52 1-95-41-95-93v-333c0-21 7-42 21-59l209-261c10-13 17-34 19-53 1-7 8-13 16-13h31c10 0 17 8 16 17-3 31-15 65-34 88l-209 261c-4 6-6 13-6 20v333c0 41 62 42 62-2v-292l126-151c72-87 189 5 139 82-1 1-1 1-1 2l-60 82c-9 13-8 33 7 44 13 10 33 7 43-7l83-114c25-33 38-73 38-113v-235c0-8 7-15 16-15h31c9 0 16 7 16 15v235c0 54-18 106-50 150l-83 114z m820 205c0 52-43 94-95 94-51-1-92-47-92-98v-267l-122-143c-13-17-39 3-26 20l56 77c26 36 25 87-5 120-50 53-118 30-146-8l-82-114c-33-43-50-96-50-150v-234c0-9 7-16 15-16h31c9 0 16 7 16 16v234c0 40 13 80 38 113l83 114c10 15 30 17 44 7 15-11 16-31 7-43l-60-83c-1 0-1-1-1-1-51-78 66-170 138-83l126 151v293c0 43 63 42 63 1v-333c0-7-3-14-7-19l-209-262c-19-23-30-57-33-88-1-9 6-17 15-17h31c8 0 15 6 16 14 2 18 9 39 20 52l209 262c13 16 20 37 20 58l0 333z" horiz-adv-x="1250" />

<glyph glyph-name="leaf-heart-light" unicode="&#xe839;" d="M832 449c-27 23-93 56-176-28-83 84-149 51-176 28-54-45-56-125-8-174l165-167c11-11 28-11 39 0l165 167c48 49 45 129-9 174z m-35-130l-141-142-140 142c-20 20-24 59 4 82 27 23 61 7 75-7l61-62 62 62c14 14 48 30 75 7 28-23 24-61 4-82z m270 512c-6 13-17 19-28 19-10 0-21-5-27-17-61-105-169-170-293-170h-156c-207 0-375-168-375-375 0-41 6-80 18-116-149-127-202-274-204-280-6-17 3-34 19-40 15-6 34 1 40 19 0 1 47 128 171 240 30-57 147-220 370-196 307 22 523 297 523 634 0 98-21 199-58 282z m-471-854c-190-20-346 129-346 311 0 172 140 312 313 312h156c123 0 236 56 312 151 20-63 32-134 32-202 0-312-196-553-467-572z" horiz-adv-x="1125" />

<glyph glyph-name="school-light" unicode="&#xe83a;" d="M688 475h-32v63c0 8-7 15-15 15h-32c-8 0-15-7-15-15v-110c0-8 7-15 15-15h79c8 0 15 7 15 15v31c0 9-7 16-15 16z m31-250h-188c-51 0-93-42-93-94v-265c0-9 7-16 15-16h31c9 0 16 7 16 16v265c0 18 14 32 31 32h188c17 0 31-14 31-32v-265c0-9 7-16 16-16h31c9 0 16 7 16 16v265c0 52-42 94-94 94z m469 250h-188v104c0 21-10 41-28 52l-312 209c-11 7-23 10-35 10s-24-3-35-10l-312-209a63 63 0 0 1-28-52v-104h-187c-35 0-63-28-63-62v-547c0-9 7-16 16-16h31c9 0 16 7 16 16v547h187v-547c0-9 7-16 16-16h31c9 0 16 7 16 16v713l312 209 313-209v-713c0-9 7-16 15-16h31c9 0 16 7 16 16v547h188v-547c0-9 7-16 15-16h31c9 0 16 7 16 16v547c0 34-28 62-62 62z m-563 188c-103 0-187-85-187-188s84-187 187-187 188 84 188 187-85 188-188 188z m0-313c-69 0-125 56-125 125s56 125 125 125 125-56 125-125-56-125-125-125z" horiz-adv-x="1250" />

<glyph glyph-name="graduation-cap-light" unicode="&#xe83b;" d="M1196 549l-518 168c-35 11-71 11-106 0l-518-168c-33-10-54-40-54-74s21-64 54-74l58-19c-6-12-11-25-14-39-21-10-35-31-35-55 0-25 14-46 35-56l-35-219c-3-20 8-38 22-38h80c14 0 25 18 22 38l-35 219c21 10 36 31 36 56 0 20-11 38-27 49 3 9 8 17 13 25l105-34-29-228c0-69 168-125 375-125s375 56 375 125l-28 228 224 73c33 10 54 40 54 74s-21 64-54 74z m-259-445c-21-22-128-66-312-66-184 0-290 44-311 66l25 205 233-76c5-1 50-18 106 0l233 76 26-205z m239 356l-517-167c-22-7-46-7-68 0l-343 111 383 72c17 3 28 19 25 36-3 17-20 28-37 25l-398-75c-24-4-46-15-64-29l-83 27c-16 5-15 25 0 30l517 167c30 10 55 4 68 0l517-167c15-5 16-25 0-30z" horiz-adv-x="1250" />

<glyph glyph-name="eye-light" unicode="&#xe83c;" d="M563 288a125 125 0 0 1 0 250c-2 0-4-1-6-1a93 93 0 0 0-119-119c0-2 0-4 0-5a125 125 0 0 1 125-125z m555 91c-106 206-315 346-555 346s-450-140-556-346a63 63 0 0 1 0-57c106-207 315-347 556-347s449 140 555 347a63 63 0 0 1 0 57z m-555 284a250 250 0 1 0-250-250 250 250 0 0 0 250 250z m0-625c-210 0-402 119-500 312a576 576 0 0 0 253 253c-41-53-66-119-66-190a313 313 0 0 1 625 0c0 71-25 137-66 190a576 576 0 0 0 254-253c-99-193-291-312-500-312z" horiz-adv-x="1125" />

<glyph glyph-name="balance-scale-right-light" unicode="&#xe83d;" d="M1239 117l-213 344c-6 9-16 14-26 14s-20-5-26-14l-213-344c-8-11-12-24-11-38 11-128 119-229 250-229 131 0 239 101 250 229 1 14-3 27-11 38z m-239 268l176-285h-354l178 285z m0-473c-81 0-150 53-177 126h354c-25-73-96-126-177-126z m35 620l10 30c3 8-2 17-10 19l-294 99c6 14 9 29 9 45 0 69-56 125-125 125-57 0-105-39-120-91l-270 90c-8 3-17-1-20-10l-10-29c-3-8 2-17 10-20l290-97c11-43 45-77 89-89v-692h-391c-8 0-15-7-15-15v-31c0-9 7-16 15-16h438c8 0 15 7 15 16v738c17 5 33 13 46 23l313-105c8-2 17 2 20 10z m-410 131c-34 0-62 28-62 62s28 63 62 63 63-28 63-63-28-62-63-62z m-125-334c1 14-3 27-11 38l-213 344c-6 9-16 14-26 14s-20-5-26-14l-213-344c-8-11-12-24-11-38 11-128 119-229 250-229s239 101 250 229z m-250 306l176-285h-354l178 285z m-177-347h354c-25-72-96-125-177-125-81 0-150 52-177 125z" horiz-adv-x="1250" />

<glyph glyph-name="balance-scale-light" unicode="&#xe83e;" d="M1239 305l-213 344c-6 9-16 14-26 14s-20-5-26-14l-213-344c-8-11-12-25-11-38 11-129 119-229 250-229s239 100 250 229c1 13-3 27-11 38z m-239-205c-81 0-151 53-177 125h354c-27-73-96-125-177-125z m-176 188l176 284 178-284h-354z m223-376h-391v692c54 14 94 63 94 121h297c9 0 16 7 16 16v31c0 9-7 16-16 16h-315c0 0-8 21-37 41-20 13-44 21-70 21s-50-8-70-21c-29-20-37-41-37-41h-315c-8 0-15-7-15-16v-31c0-9 7-16 15-16h297c0-58 40-107 94-121v-692h-391c-8 0-15-7-15-15v-31c0-9 7-16 15-16h844c9 0 16 7 16 16v31c0 8-7 15-16 15z m-484 813c0 35 28 63 62 63s63-28 63-63-28-62-63-62-62 28-62 62z m-63-458c1 13-3 27-11 38l-213 344c-6 9-16 14-26 14s-20-5-26-14l-213-344c-8-11-12-25-11-38 11-129 119-229 250-229s239 100 250 229z m-250 305l178-284h-354l176 284z m-177-347h354c-27-73-96-125-177-125-81 0-151 53-177 125z" horiz-adv-x="1250" />

<glyph glyph-name="puzzle-piece-light" unicode="&#xe83f;" d="M989 350c-102 0-140-91-170-54-39 49-4 210 7 258-67-12-268-47-320-4-33 27 61 85 61 169 0 80-66 131-147 131-85 0-166-50-166-134 0-104 90-140 48-173-56-44-233-6-302 10v-674c65-16 138-29 207-29 83 0 168 23 168 106 0 57-62 80-62 144 0 48 44 63 91 63 76 0 96-40 96-63 0-56-67-71-67-150 0-26 10-49 28-66 69-60 209-12 366-12-2 7-53 170-15 219 32 43 95-57 180-57 83 0 133 79 133 160 0 83-51 156-136 156z m3-254c-58 0-80 67-159 67-104 0-107-127-86-231-71-6-209-32-244-1-39 35 60 83 60 169 0 74-66 125-159 125-146 0-201-117-109-238 9-13 18-24 18-31 0-66-184-41-250-28v547c123-23 312-35 312 91 0 56-58 84-58 150 0 48 55 72 103 72 39 0 84-19 84-69 0-58-66-80-66-158 0-113 197-99 309-84-16-106-17-252 91-252 57 0 85 63 151 63 49 0 74-46 74-94 0-67-41-98-71-98z" horiz-adv-x="1125" />

<glyph glyph-name="facebook-f" unicode="&#xe840;" d="M545 288l28 181h-174v117c0 50 24 98 102 98h79v154s-71 12-140 12c-143 0-236-87-236-244v-137h-159v-181h159v-438h195v438z" horiz-adv-x="625" />

<glyph glyph-name="medium-m" unicode="&#xe841;" d="M140 572c1 12-4 23-12 31l-88 106v16h274l211-464 186 464h262v-16l-76-72c-6-5-10-13-8-21v-531c-2-8 2-17 8-21l74-73v-16h-371v16l77 74c7 8 7 10 7 21v430l-212-539h-29l-247 539v-361c-2-16 3-31 14-42l99-120v-16h-281v16l99 120c11 11 15 27 13 42v417z" horiz-adv-x="1000" />

<glyph glyph-name="map-marker-alt-light" unicode="&#xe842;" d="M375 663c-103 0-187-85-187-188s84-187 187-187 188 84 188 187-85 188-188 188z m0-313c-69 0-125 56-125 125s56 125 125 125 125-56 125-125-56-125-125-125z m0 500c-207 0-375-168-375-375 0-151 53-193 337-605 18-27 58-27 77 0 283 412 336 454 336 605 0 207-168 375-375 375z m0-926c-272 394-312 425-312 551 0 83 32 162 91 221s138 92 221 92 162-33 221-92 92-138 92-221c0-126-41-157-313-551z" horiz-adv-x="750" />

<glyph glyph-name="arrow-to-bottom-light" unicode="&#xe844;" d="M681 334l-289-290c-10-9-24-9-34 0l-289 290c-9 10-9 24 0 34l14 13c9 10 24 10 33 0l226-226v609c0 13 10 24 23 24h20c13 0 23-11 23-24v-609l226 226c9 9 24 9 33 0l14-14c9-9 9-23 0-33z m69-398v16c0 12-10 23-23 23h-704c-12 0-23-11-23-23v-16c0-13 11-24 23-24h704c13 0 23 11 23 24z" horiz-adv-x="750" />

<glyph glyph-name="sack-dollar-light" unicode="&#xe84a;" d="M654 613l86 140c27 41-3 97-52 97h-375c-50 0-80-56-52-97l85-141c-364-232-346-528-346-567 0-108 96-195 215-195h571c118 0 214 87 214 195 0 38 16 336-346 568z m-341 175h375l-96-157h-183z m625-743c0-73-69-133-152-133h-571c-84 0-152 60-152 133v7c-2 117 39 338 330 517h215c290-179 331-400 330-518z m-380 198l-96 29c-11 3-19 14-19 26 0 16 12 28 25 28h60a52 52 0 0 0 27-8 17 17 0 0 1 22 2l25 24a17 17 0 0 1-2 25 123 123 0 0 1-67 24v34a17 17 0 0 1-17 17h-33a17 17 0 0 1-17-17v-34c-51-1-91-43-91-95 0-42 28-79 67-91l96-28c11-3 19-14 19-27 0-15-12-28-25-28h-60a52 52 0 0 0-27 8 17 17 0 0 1-22-1l-25-24a17 17 0 0 1 2-26 123 123 0 0 1 66-23v-35a17 17 0 0 1 17-17h34a17 17 0 0 1 17 17v34c51 1 91 43 91 95 0 42-27 79-67 91z" horiz-adv-x="1000" />

<glyph glyph-name="layer-plus-light" unicode="&#xe84b;" d="M984 663h-171v171c0 9-7 16-16 16h-31c-9 0-16-7-16-16v-171h-172c-8 0-15-7-15-16v-31c0-9 7-16 15-16h172v-172c0-8 7-15 16-15h31c9 0 16 7 16 15v172h171c9 0 16 7 16 16v31c0 9-7 16-16 16z m-13-529l-195 84 195 83c17 7 24 26 17 42-7 17-26 24-42 17l-440-189c-4-2-8-2-11 0l-407 174 378 163c17 7 24 26 17 42-7 16-26 23-42 16l-412-176c-18-8-29-25-29-45 0-19 11-36 29-44l195-84-195-83c-18-8-29-25-29-44 0-20 11-37 29-44l440-190c10-4 21-6 31-6s21 2 31 6l440 190c18 7 29 24 29 44 0 19-11 36-29 44z m-466-219c-3-2-7-2-10 0l-407 175 217 93 164-71c10-4 21-6 31-6s21 2 31 6l164 71 217-93-407-175z" horiz-adv-x="1000" />

<glyph glyph-name="hand-paper-light" unicode="&#xe886;" d="M722 617v45c0 84-84 142-161 110-39 106-185 102-220-1-75 31-160-25-160-109v-285c-39 27-93 27-133-3-52-38-64-111-26-164l244-341c9-12 23-19 38-19h454c22 0 41 15 46 36l61 265c7 29 10 59 10 89v266c0 81-79 137-153 111z m91-377c0-25-3-50-9-75l-59-252h-433l-239 334c-18 24-12 59 12 77 24 18 58 12 75-12l55-77c9-12 29-6 29 9v418c0 74 108 72 108-2v-310c0-9 7-16 16-16h13c9 0 16 7 16 16v382c0 75 108 73 108-1v-381c0-8 7-15 16-15h14c8 0 15 7 15 15v313c0 75 109 72 109-1v-312c0-9 7-16 15-16h14c9 0 16 7 16 16v154c0 74 108 76 108 2v-266z" horiz-adv-x="875" />

<glyph glyph-name="hand-sparkles-light" unicode="&#xe887;" d="M601 288a8 8 0 0 1-14 0l-24-59-59-24a8 8 0 0 1 0-14l59-24 24-58a8 8 0 0 1 14 0l24 58 58 24a8 8 0 0 1 0 14l-58 24z m-393 233l1 0 97 41a14 14 0 0 1 7 11h0a14 14 0 0 1-7 12l-97 40-1 0-40 97a13 13 0 0 1-23 0l-41-97 0 0-97-40a14 14 0 0 1-7-12h0a14 14 0 0 1 7-12l97-40 0 0 41-97a13 13 0 0 1 23 0l40 97z m1042-510a14 14 0 0 1-7 11l-97 41 0 0-40 97a13 13 0 0 1-24 0l-40-97 0 0-97-41a14 14 0 0 1-7-11h0a14 14 0 0 1 7-12l97-41 0 0 40-97a13 13 0 0 1 23 0l41 97h0l0 0 97 41a14 14 0 0 1 7 12h0z m-363-99h-353a63 63 0 0 0-52 28l-223 336a47 47 0 0 0 11 65c31 22 59-1 65-11l74-106a16 16 0 0 1 29 9v445a47 47 0 1 0 93 0v-312a16 16 0 0 1 16-16h24a70 70 0 0 0 15 3c5 3 8 7 8 13v375a47 47 0 0 0 94 0v-375a16 16 0 0 1 15-16h32a16 16 0 0 1 15 16v312a47 47 0 0 0 94 0v-312a16 16 0 0 1 16-16h31a16 16 0 0 1 15 16v156a47 47 0 0 0 94 0v-235a629 629 0 0 0-12-123l-12-61 18 8 30 73 1 2 1 2a76 76 0 0 0 33 32c2 23 4 45 4 67v235a109 109 0 0 1-110 109 108 108 0 0 1-47-10v57a109 109 0 0 1-161 96 109 109 0 0 1-208 0 109 109 0 0 1-162-96v-298c-22 23-82 54-141 13a110 110 0 0 1-27-153l223-334a125 125 0 0 1 104-56h352a125 125 0 0 1 108 61l-60 25a62 62 0 0 0-47-24z" horiz-adv-x="1250" />

<glyph glyph-name="handshake-light" unicode="&#xe888;" d="M31 225c17 0 32 15 32 32s-15 31-32 31-31-14-31-31c0-18 14-32 31-32z m1203 375l-221 0-100 97c-18 18-41 28-66 28h-198c-20 0-39-8-55-20-16 13-37 20-57 20h-136c-25 0-49-10-66-27l-98-98h-221c-9 0-16-7-16-16v-31c0-8 7-15 16-15h109v-375h-109c-9 0-16-7-16-16v-31c0-9 7-16 16-16h109c34 0 62 28 62 62h65l159-152c59-47 141-46 198 0l14-12c18-15 41-23 65-23 31 0 61 13 81 38l43 53c32-18 84-18 117 23l19 23c12 15 18 32 20 50h95c0-34 28-62 62-62h110c8 0 15 7 15 16v31c0 9-7 16-15 16h-110v374l110 1c8 0 15 7 15 15v31c0 9-7 16-16 16z m-335-448l-19-23c-10-13-30-16-44-5l-34 28-81-99c-15-18-41-20-58-7l-60 51-20-25c-33-40-92-46-130-15l-176 168h-89v313h75l116 116c6 5 14 9 22 9h136c1-5 0-2 2-6l-116-106c-55-50-57-135-8-189 28-31 115-77 190-8l44 41 245-199c14-11 16-31 5-44z m164 73h-112c-5 7-11 13-17 19l-238 193 55 51c13 12 14 32 2 44s-31 14-44 2l-147-134c-28-26-75-23-101 4-26 29-25 75 4 101l163 149c6 5 13 8 21 8h197c9 0 16-3 22-9l119-115h76v-313z m156 63c-17 0-31-14-31-32s14-31 31-31 31 14 31 31c0 18-14 32-31 32z" horiz-adv-x="1250" />

<glyph glyph-name="sun-plant-wilt-solid" unicode="&#xe88f;" d="M313 850c-13 0-24-7-29-19l-48-108-111 43c-12 4-25 1-33-7s-12-22-7-34l42-110-108-49c-12-5-19-16-19-28s7-24 19-29l108-48-43-111c-4-12-1-25 7-33s22-12 34-7l110 42 49-108c5-12 16-19 28-19s24 7 29 19l48 108 111-42c12-5 25-2 33 7s12 21 7 33l-42 111 108 48c11 5 19 16 19 29s-8 23-19 28l-108 49 42 110c5 12 2 25-7 33s-21 12-33 7l-110-42-49 108c-5 12-16 19-28 19z m0-187a125 125 0 1 0 0-250 125 125 0 1 0 0 250z m62-125a63 63 0 1 1-125 0 63 63 0 1 1 125 0z m609-32c0 35 28 63 63 63s62-28 62-63v-104c-28-15-46-45-46-87 0-33 31-86 73-131 11-12 30-12 41 0 42 45 73 98 73 131 0 42-18 72-47 87v104c0 87-70 157-156 157s-156-70-156-157v-44c-19 8-41 13-63 13-86 0-156-70-156-156v-42c-29-15-47-45-47-87 0-33 31-86 73-131 11-12 30-12 42 0 41 45 73 98 73 131 0 42-18 72-47 87v42c0 34 28 62 62 62s63-28 63-62v-16-328h-828c-35 0-63-28-63-63s28-62 63-62h1125c34 0 62 28 62 62s-28 63-62 63h-204v328 16 187z" horiz-adv-x="1250" />

<glyph glyph-name="tractor-light" unicode="&#xe890;" d="M344 350c-87 0-156-70-156-156s69-156 156-156 156 69 156 156-70 156-156 156z m0-234c-43 0-78 35-78 78s35 78 78 78 78-35 78-78-35-78-78-78z m844 359h-125v22c0 43 15 84 43 117 5 7 5 16-1 22l-22 22c-6 6-17 6-22-1-39-44-61-101-61-161v-21h-280l-164 340a63 63 0 0 1-56 35h-250c-35 0-62-28-62-62v-305c-22 3-43-2-60-19l-55-55c-25-25-27-64-6-92-2-5-5-10-7-15-34-4-60-34-60-69v-78c0-36 26-65 60-70 2-5 4-10 7-15-10-12-14-26-14-42 0-19 7-36 20-50l55-55c26-25 65-27 92-6 5-3 10-5 15-7 5-34 34-60 70-60h78c35 0 65 26 70 60 4 2 10 4 14 6 28-20 67-18 92 7l56 55c13 13 20 31 20 50 0 15-5 30-14 42 2 5 4 10 6 15 13 2 23 8 33 15h164c-7-20-11-41-11-63 0-103 84-187 187-187s188 84 188 187c0 52-21 99-55 133l99 99c12 12 18 28 18 44v100c0 34-27 62-62 62z m-938 313h250l150-313h-106c-21 12-47 12-69 0h-18c-1 1-3 1-5 2-4 34-34 61-69 61h-78c-23 0-42-12-55-28v278z m375-633c0-5-3-8-8-8h-36c-14-46-13-45-36-88l25-25 0-11-55-56c-3-3-8-3-11 0l-25 26c-43-23-43-23-88-37v-36c0-4-4-8-8-8h-78c-5 0-8 4-8 8v36c-46 14-46 14-88 37l-25-26a8 8 0 0 0-11 0l-56 56 0 11 26 25c-24 43-23 42-37 88h-36c-4 0-7 3-7 8v78c0 4 3 8 7 8h36c14 46 13 44 37 88l-26 25a8 8 0 0 0 0 11l56 55c3 3 8 3 11 0l25-25c42 23 42 23 88 36v36c0 5 3 8 8 8h78c4 0 8-3 8-8v-36c45-13 45-13 88-36l25 25c3 3 8 3 11 0l55-55a8 8 0 0 0 0-11l-25-25c23-44 22-42 36-88h36c5 0 8-4 8-8v-78z m375-243c-69 0-125 57-125 126s56 125 125 125 125-57 125-125-56-126-125-126z m188 402l-108-108c-24 12-51 19-80 19-55 0-105-24-139-62h-173v70c0 35-27 65-61 69-2 5-4 10-6 15 21 28 19 67-6 92l-4 4h577v-100z" horiz-adv-x="1250" />

<glyph glyph-name="sort-amount-up-light" unicode="&#xe891;" d="M609 100h-93a16 16 0 0 1-16-16v-31a16 16 0 0 1 16-15h93a16 16 0 0 1 16 15v31a16 16 0 0 1-16 16z m125 188h-218a16 16 0 0 1-16-16v-31a16 16 0 0 1 16-16h218a16 16 0 0 1 16 16v31a16 16 0 0 1-16 16z m250 375h-468a16 16 0 0 1-16-16v-31a16 16 0 0 1 16-16h468a16 16 0 0 1 16 16v31a16 16 0 0 1-16 16z m-125-188h-343a16 16 0 0 1-16-16v-31a16 16 0 0 1 16-15h343a16 16 0 0 1 16 15v31a16 16 0 0 1-16 16z m-624 306a23 23 0 0 1-33 0l-164-161a23 23 0 0 1 0-33l11-11a23 23 0 0 1 33-1l105 103v-750a16 16 0 0 1 16-16h31a16 16 0 0 1 16 16v750l105-102a23 23 0 0 1 33 0l11 11a23 23 0 0 1 0 33z" horiz-adv-x="1000" />

<glyph glyph-name="network-wired-light" unicode="&#xe892;" d="M1234 381h-578v157h157c34 0 62 27 62 62v188c0 34-28 62-62 62h-375c-35 0-63-28-63-62v-188c0-35 28-62 63-62h156v-157h-578c-9 0-16-7-16-15v-32c0-8 7-15 16-15h234v-156h-125c-35 0-62-28-62-63v-188c0-34 27-62 62-62h313c34 0 62 28 62 62v188c0 35-28 63-62 63h-125v156h625v-156h-125c-35 0-63-28-63-63v-188c0-34 28-62 63-62h312c35 0 63 28 63 62v188c0 35-28 63-63 63h-125v156h234c9 0 16 7 16 15v32c0 8-7 15-16 15z m-796-281v-188h-313v188h313z m0 500v188h375v-188h-375z m687-500v-188h-312v188h312z" horiz-adv-x="1250" />
</font>
</defs>
</svg>
